+ skywayico.com »  :::: Bollywood Zone » Pakistani / Urdu Movies
|- O21 (Operation 21) 2014 - URDU - 720p - WEBHD - AVC - AAC - XMAD - 540MB [with English Subtitle]

O21 (Operation 21) 2014 - URDU - 720p - WEBHD - AVC - AAC - XMAD - 540MB [with English Subtitle]

0 Members and 1 Guest are viewing this topic.

January 16, 2018, 02:11:13 AM
  • Semi Newbie
  • **
  • Topic Author
  • Thank You: 19
  • Reputation: 4
  • Activity:
    0%
  • Posts: 34
  • Topics: 10
  • Join Date: Jul 2012
  • ShareSpark Member
:title:
O21 (Operation 21) 2014 - URDU - 720p - WEBHD - AVC - AAC - XMAD - 540MB [with English Subtitle]

Exclusive By

[-=!XMAD!=-]




:imdb:
Quote

 :plot:
Quote
A gripping action thriller in which two men executes a plan to stop the war between Afghanistan and Pakistan within 21 hours.

 :info:
Quote
General
Complete name                            : O21 (Operation 21) 2014 - URDU - 720p - WEBHD - AVC - AAC - XMAD.mp4
Format                                   : MPEG-4
Format profile                           : Base Media / Version 2
Codec ID                                 : mp42 (isom/mp42)
File size                                : 541 MiB
Duration                                 : 2 h 3 min
Overall bit rate mode                    : Variable
Overall bit rate                         : 614 kb/s
Encoded date                             : UTC 2017-11-23 10:02:18
Tagged date                              : UTC 2017-11-23 10:02:18
gsst                                     : 0
gstd                                     : 7387358

Video
ID                                       : 1
Format                                   : AVC
Format/Info                              : Advanced Video Codec
Format profile                           : [email protected]
Format settings                          : CABAC / 3 Ref Frames
Format settings, CABAC                   : Yes
Format settings, ReFrames                : 3 frames
Codec ID                                 : avc1
Codec ID/Info                            : Advanced Video Coding
Duration                                 : 2 h 3 min
Bit rate                                 : 485 kb/s
Width                                    : 1 280 pixels
Height                                   : 720 pixels
Display aspect ratio                     : 16:9
Frame rate mode                          : Constant
Frame rate                               : 24.000 FPS
Color space                              : YUV
Chroma subsampling                       : 4:2:0
Bit depth                                : 8 bits
Scan type                                : Progressive
Bits/(Pixel*Frame)                       : 0.022
Stream size                              : 428 MiB (79%)
Title                                    : ISO Media file produced by Google Inc. Created on: 11/23/2017.
Encoded date                             : UTC 2017-11-23 10:02:18
Tagged date                              : UTC 2017-11-23 10:02:18
Color range                              : Limited
Color primaries                          : BT.709
Transfer characteristics                 : BT.709
Matrix coefficients                      : BT.709

Audio
ID                                       : 2
Format                                   : AAC
Format/Info                              : Advanced Audio Codec
Format profile                           : LC
Codec ID                                 : mp4a-40-2
Duration                                 : 2 h 3 min
Bit rate mode                            : Variable
Bit rate                                 : 126 kb/s
Channel(s)                               : 2 channels
Channel positions                        : Front: L R
Sampling rate                            : 44.1 kHz
Frame rate                               : 43.066 FPS (1024 SPF)
Compression mode                         : Lossy
Stream size                              : 111 MiB (20%)
Title                                    : ISO Media file produced by Google Inc. Created on: 11/23/2017.
Encoded date                             : UTC 2017-11-23 10:02:18
Tagged date                              : UTC 2017-11-23 10:02:18

 :ss:



 :download:

Quote
















Eng Subtitle for Non-English Parts only
Edited and Timed by ME




Share this topic on FacebookShare this topic on GoogleShare this topic on MySpaceShare this topic on TwitterShare this topic on Yahoo

« Last Edit: January 16, 2018, 02:13:13 AM by XMAD222 »


Thanks given by:


January 26, 2018, 07:06:41 PM
Reply #1
  • Special Member
  • ****
  • Thank You: 1
  • Reputation: 1
  • Activity:
    0.6%
  • Posts: 826
  • Topics: 2
  • Join Date: Apr 2012
  • ShareSpark Member

Tags:
 

Related Topics

  Subject / Started by Replies Last post
2 Replies
1150 Views
Last post August 06, 2017, 12:00:47 PM
by shahidimran
1 Replies
1006 Views
Last post August 24, 2017, 10:11:53 PM
by abubakar7861
2 Replies
1725 Views
Last post January 26, 2018, 07:06:03 PM
by shahidimran
2 Replies
1163 Views
Last post January 26, 2018, 07:06:27 PM
by shahidimran
1 Replies
866 Views
Last post January 26, 2018, 08:59:00 AM
by Changezi



Back to top