+ skywayico.com »  :::: Dubbed Zone (Dubbed English in Hindi) » English Movies Dubbed in Hindi
|- Gangster Squad 2013 720p Esub BluRay Dual Audio English Hindi GOPISAHI


Gangster Squad 2013 720p Esub BluRay Dual Audio English Hindi GOPISAHI

0 Members and 1 Guest are viewing this topic.

February 14, 2018, 06:07:26 AM
  • Addic7ed
  • Special Member
  • ****
  • Topic Author
  • Thank You: 329
  • Reputation: 76
  • Activity:
    62.2%
  • Country: in
  • Posts: 661
  • Topics: 619
  • Join Date: Oct 2013
  • ShareSpark Member

Format                         : Matroska
Format version                 : Version 4 / Version 2
File size                      : 628 MiB
Duration                       : 1 h 52 min
Overall bit rate               : 777 kb/s
Movie name                     : Gangster Squad 2013 GOPISAHI

Video
Format                         : AVC
Codec ID                       : V_MPEG4/ISO/AVC
Duration                       : 1 h 52 min
Bit rate                       : 600 kb/s
Width                          : 1 280 pixels
Height                         : 528 pixels
Display aspect ratio           : 2.40:1
Frame rate mode                : Constant
Frame rate                     : 23.976 (24000/1001) FPS
Bits/(Pixel*Frame)             : 0.037
Stream size                    : 484 MiB (77%)
Writing library                : x264 core 155 r2893 b00bcaf

Audio #1
Format                         : AAC
Duration                       : 1 h 52 min
Bit rate                       : 90.0 kb/s
Channel(s)                     : 6 channels
Channel positions              : Front: L C R, Side: L R, LFE
Sampling rate                  : 44.1 kHz
Frame rate                     : 43.066 FPS (1024 SPF)
Compression mode               : Lossy
Stream size                    : 72.7 MiB (12%)
Language                       : Hindi

Audio #2
Format                         : AAC
Duration                       : 1 h 52 min
Bit rate                       : 84.3 kb/s
Channel(s)                     : 6 channels
Channel positions              : Front: L C R, Side: L R, LFE
Sampling rate                  : 44.1 kHz
Frame rate                     : 43.066 FPS (1024 SPF)
Compression mode               : Lossy
Stream size                    : 68.1 MiB (11%)
Title                          : GOPISAHI
Language                       : English

Text
Language                       : English



















Share this topic on FacebookShare this topic on GoogleShare this topic on MySpaceShare this topic on TwitterShare this topic on Yahoo




Tags:
 

Related Topics





Back to top