+ skywayico.com »  :::: Dubbed Zone (Dubbed English in Hindi) » English Movies Dubbed in Hindi
|- Criminal (2016) BluRay 720p x264 Dual Audio [English-Hindi] AAC 5.1 ESub -DDR By ~Katyayan~


Criminal (2016) BluRay 720p x264 Dual Audio [English-Hindi] AAC 5.1 ESub -DDR By ~Katyayan~

0 Members and 1 Guest are viewing this topic.

February 14, 2018, 03:23:45 PM
  • Semi Newbie
  • **
  • Topic Author
  • Thank You: 24
  • Reputation: 7
  • Activity:
    4.8%
  • Country: in
  • Posts: 24
  • Topics: 22
  • Join Date: Feb 2018
  • ShareSpark Member
Criminal (2016) BluRay 720p x264 Dual Audio [English-Hindi] AAC 5.1 ESub -DDR



 Specs:
Source: BD50 @ DDR


-=General=-

Format                                   : Matroska
Format version                           : Version 4 / Version 2
File size                                : 1.14 GiB
Duration                                 : 1 h 53 min
Overall bit rate                         : 1 443 kb/s

-=Video=-


ID                                       : 1
Format                                   : AVC
Format/Info                              : Advanced Video Codec
Format profile                           : Hig[email protected]
Format settings, CABAC                   : Yes
Format settings, ReFrames                : 12 frames
Codec ID                                 : V_MPEG4/ISO/AVC
Duration                                 : 1 h 53 min
Bit rate                                 : 1 085 kb/s
Width                                    : 1 280 pixels
Height                                   : 534 pixels
Display aspect ratio                     : 2.40:1
Frame rate mode                          : Constant
Frame rate                               : 23.976 (24000/1001) FPS
Color space                              : YUV
Chroma subsampling                       : 4:2:0
Bit depth                                : 8 bits
Scan type                                : Progressive
Bits/(Pixel*Frame)                       : 0.066
Stream size                              : 881 MiB (75%)
Writing library                          : x264 core 148 r2692 64f4e24
Language                                 : English
Default                                  : Yes
Forced                                   : No
Color range                              : Limited
Color primaries                          : BT.709
Transfer characteristics                 : BT.709
Matrix coefficients                      : BT.709

 

-=Audio #1=-


ID                                       : 2
Format                                   : AAC
Format/Info                              : Advanced Audio Codec
Format profile                           : LC
Codec ID                                 : A_AAC
Duration                                 : 1 h 53 min
Bit rate                                 : 192 kb/s
Channel(s)                               : 6 channels
Channel positions                        : Front: L C R, Side: L R, LFE
Sampling rate                            : 48.0 kHz
Frame rate                               : 46.875 FPS (1024 spf)
Compression mode                         : Lossy
Delay relative to video                  : 9 ms
Stream size                              : 156 MiB (13%)
Language                                 : English
Default                                  : No
Forced                                   : No

 

-=Audio #2=-


ID                                       : 4
Format                                   : AAC
Format/Info                              : Advanced Audio Codec
Format profile                           : LC
Codec ID                                 : A_AAC
Duration                                 : 1 h 53 min
Bit rate                                 : 160 kb/s
Channel(s)                               : 6 channels
Channel positions                        : Front: L C R, Side: L R, LFE
Sampling rate                            : 48.0 kHz
Frame rate                               : 46.875 FPS (1024 spf)
Compression mode                         : Lossy
Delay relative to video                  : 17 s 945 ms
Stream size                              : 129 MiB (11%)
Language                                 : Hindi
Default                                  : Yes
Forced                                   : No

-=Text=-


ID                                       : 3
Format                                   : VobSub
Muxing mode                              : zlib
Codec ID                                 : S_VOBSUB
Codec ID/Info                            : Picture based subtitle format used on DVDs
Duration                                 : 1 h 43 min
Bit rate                                 : 4 570 b/s
Count of elements                        : 1276
Stream size                              : 3.40 MiB (0%)
Language                                 : English
Default                                  : Yes
Forced                                   : No

-=Menu #1=-


00:00:00.000                             : en:00:00:00.000
00:10:41.264                             : en:00:10:41.264
00:15:32.264                             : en:00:15:32.264
00:23:45.339                             : en:00:23:45.339
00:30:56.561                             : en:00:30:56.561
00:36:01.367                             : en:00:36:01.367
00:45:36.315                             : en:00:45:36.315
00:48:48.507                             : en:00:48:48.507
00:54:51.454                             : en:00:54:51.454
01:01:46.244                             : en:01:01:46.244
01:08:32.608                             : en:01:08:32.608
01:16:11.608                             : en:01:16:11.608
01:22:20.143                             : en:01:22:20.143
01:29:52.011                             : en:01:29:52.011
01:36:46.091                             : en:01:36:46.091
01:42:08.497                             : en:01:42:08.497

-=Menu #2=-


00:00:00.054                             : en:00:00:00.054 / en:00:00:00.054

-=Menu #3=-


00:00:00.054                             : en:00:00:00.054








Share this topic on FacebookShare this topic on GoogleShare this topic on MySpaceShare this topic on TwitterShare this topic on Yahoo

« Last Edit: February 14, 2018, 03:32:16 PM by Katyayan »


Thanks given by:


February 14, 2018, 04:22:00 PM
Reply #1
  • Conqueror
  • Special Member
  • *****
  • Thank You: 333
  • Reputation: 127
  • Activity:
    100%
  • Country: in
  • Posts: 798
  • Topics: 395
  • Join Date: Oct 2015
  • Hit ThanX Button 🔳 N Repute Button 🔳
Hit Thnx Button 🔳 N + Repute Button 🔳 Always Appreciate UploadeR 🤗 GiVe Respect GeT Respect :yu:

Tags:
 

Related Topics





Back to top