+ skywayico.com »  :::: Hollywood Zone » English PC Videos (High-Definition)
|- Kingsman: The Golden Circle [2017] Official Trailer [ HD 720p ]

Kingsman: The Golden Circle [2017] Official Trailer [ HD 720p ]

0 Members and 1 Guest are viewing this topic.

April 25, 2017, 10:37:50 AM
  • Admin
  • Legend Member
  • ****
  • Topic Author
  • Thank You: 1861
  • Reputation: 473
  • Activity:
    41.8%
  • Country: in
  • Posts: 3496
  • Topics: 2108
  • Join Date: Dec 2013
  • ShareSpark Member
   
Kingsman: The Golden Circle [2017] Official Trailer [ HD 720p ]



   Poster

















General
Format                      : MPEG-4
Format profile              : Base Media / Version 2
Codec ID                    : mp42 (isom/mp42)
File size                   : 18.6 MiB
Duration                    : 1 min 57 s
Overall bit rate mode       : Variable
Overall bit rate            : 1 328 kb/s
Encoded date                : UTC 2017-04-22 21:15:24
Tagged date                 : UTC 2017-04-22 21:15:24
gsst                        : 0
gstd                        : 117632

Video
ID                          : 1
Format                      : AVC
Format/Info                 : Advanced Video Codec
Format profile              : [email protected]
Format settings, CABAC      : Yes
Format settings, ReFrames   : 3 frames
Codec ID                    : avc1
Codec ID/Info               : Advanced Video Coding
Duration                    : 1 min 57 s
Bit rate                    : 1 199 kb/s
Width                       : 1 280 pixels
Height                      : 720 pixels
Display aspect ratio        : 16:9
Frame rate mode             : Variable
Frame rate                  : 23.976 (24000/1001) FPS
Minimum frame rate          : 23.974 FPS
Maximum frame rate          : 23.981 FPS
Color space                 : YUV
Chroma subsampling          : 4:2:0
Bit depth                   : 8 bits
Scan type                   : Progressive
Bits/(Pixel*Frame)          : 0.054
Stream size                 : 16.8 MiB (90%)
Encoded date                : UTC 2017-04-22 21:15:24
Tagged date                 : UTC 2017-04-22 21:15:24
Color range                 : Limited
Color primaries             : BT.709
Transfer characteristics    : BT.709
Matrix coefficients         : BT.709

Audio
ID                          : 2
Format                      : AAC
Format/Info                 : Advanced Audio Codec
Format profile              : LC
Codec ID                    : 40
Duration                    : 1 min 57 s
Bit rate mode               : Variable
Bit rate                    : 126 kb/s
Channel(s)                  : 2 channels
Channel positions           : Front: L R
Sampling rate               : 44.1 kHz
Frame rate                  : 43.066 FPS (1024 spf)
Compression mode            : Lossy
Stream size                 : 1.76 MiB (9%)
Encoded date                : UTC 2017-04-22 21:15:24
Tagged date                 : UTC 2017-04-22 21:15:24








      







   




      

Share this topic on FacebookShare this topic on GoogleShare this topic on MySpaceShare this topic on TwitterShare this topic on Yahoo

« Last Edit: April 25, 2017, 10:38:20 AM by тнє ωαll 81317 »




Tags:
 

Related Topics

  Subject / Started by Replies Last post
2 Replies
1439 Views
Last post April 02, 2017, 10:47:49 PM
by Mahamadul
0 Replies
1101 Views
Last post August 17, 2017, 12:22:52 AM
by dillu9
1 Replies
970 Views
Last post September 23, 2017, 08:07:37 PM
by saven
2 Replies
1540 Views
Last post October 04, 2017, 07:19:19 PM
by awesomeguy007
1 Replies
789 Views
Last post October 24, 2017, 03:39:33 PM
by suliman.saif.14



Back to top